Thursday 01 Nov 2012

Thursday 01 Nov 2012

avconv -i 巧虎五合一-201203.iso -strict experimental -t 00:20:44 巧虎五合一-201203.iso.mp4

avprobe version 0.8.3-6:0.8.3-7, Copyright (c) 2007-2012 the Libav developers built on Aug 25 2012 13:25:50 with gcc 4.7.1 [mov,mp4,m4a,3gp,3g2,mj2 @ 0x93a8ca0] max_analyze_duration reached Input #0, mov,mp4,m4a,3gp,3g2,mj2, from '2011.06.4IN1.mp4': Metadata: major_brand : mp42 minor_version : 0 compatible_brands: isomavc1mp423gp5 creation_time : 2012-07-03 07:46:39 title : 2011.06.4IN1 Duration: 00:02:44.54, start: 0.000000, bitrate: 913 kb/s Chapter #0.0: start 0.000000, end 164.544000 Metadata: title : Chapter 01 Stream #0.0(und): Video: h264 (Constrained Baseline), yuv420p, 448x336 [PAR 112:113 DAR 448:339], 693 kb/s, PAR 111:112 DAR 37:28, 29.97 fps, 29.97 tbr, 30k tbn, 59.94 tbc Metadata: creation_time : 2012-07-03 07:46:39 Stream #0.1(chi): Audio: aac, 48000 Hz, stereo, s16, 220 kb/s Metadata: creation_time : 2012-07-03 07:46:39 Stream #0.2(und): Data: mp4s / 0x7334706D, 0 kb/s Metadata: creation_time : 2012-07-03 07:46:39 Stream #0.3(und): Data: mp4s / 0x7334706D, 0 kb/s Metadata: creation_time : 2012-07-03 07:46:39 Unsupported codec with id 0 for input stream 2 Unsupported codec with id 0 for input stream 3

-s qvga thomas@T:\~/tmp\$ avconv -i 巧虎五合一-201203.iso -strict experimental -t 00:00:44 -s qvga 巧虎五合一-201203.iso.mp4\^C

Comments